<?xml version="1.0" standalone="no"?>
<!DOCTYPE svg PUBLIC "-//W3C//DTD SVG 1.1//EN" "http://www.w3.org/Graphics/SVG/1.1/DTD/svg11.dtd" >
<svg xmlns="http://www.w3.org/2000/svg">
<metadata></metadata>
<defs>
<font id="archivo_narrowbold" horiz-adv-x="933" >
<font-face units-per-em="2048" ascent="1638" descent="-410" />
<missing-glyph horiz-adv-x="466" />
<glyph horiz-adv-x="0" />
<glyph horiz-adv-x="682" />
<glyph unicode="&#xd;" horiz-adv-x="0" />
<glyph unicode=" "  horiz-adv-x="466" />
<glyph unicode="&#x09;" horiz-adv-x="466" />
<glyph unicode="&#xa0;" horiz-adv-x="466" />
<glyph unicode="!" horiz-adv-x="559" d="M123 1405h313l-74 -1002h-167zM139 0v281h283v-281h-283z" />
<glyph unicode="&#x22;" horiz-adv-x="796" d="M92 1104v301h250v-301l-43 -270h-162zM463 1104v301h250v-301l-43 -270h-162z" />
<glyph unicode="#" d="M10 399v172h168l64 289h-152v172h191l90 398h180l-90 -398h153l91 398h180l-90 -398h127v-172h-166l-64 -289h150v-172h-189l-90 -399h-180l90 399h-154l-90 -399h-180l90 399h-129zM358 571h154l63 289h-153z" />
<glyph unicode="$" d="M68 481l2 25h225v-14q0 -66 31 -106.5t80 -55.5v293q-42 12 -66.5 19.5t-63 23t-61.5 30t-51 39t-43.5 52t-26 66.5t-10.5 85q0 143 89 226.5t233 97.5v219h112v-217q139 -12 227.5 -90t88.5 -201q0 -10 -1 -21.5t-1 -18.5l-1 -7h-225q0 118 -88 151v-264q45 -12 69 -19 t66 -22.5t66 -30t54.5 -40t47 -54t28 -70t11.5 -90.5q0 -322 -342 -346v-241h-112v241q-160 13 -249 104.5t-89 235.5zM309 958q0 -40 25 -65.5t72 -44.5v229q-44 -14 -70.5 -45.5t-26.5 -73.5zM518 326q50 12 83.5 44.5t33.5 86.5q0 47 -30 76.5t-87 52.5v-260z" />
<glyph unicode="%" horiz-adv-x="1492" d="M72 1059q0 139 35 222.5t95 116t152 32.5q69 0 119 -18t88 -60t57 -115t19 -178q0 -204 -71 -286.5t-212 -82.5q-140 0 -211 83t-71 286zM233 0l857 1405h176l-858 -1405h-175zM254 1044q0 -101 21.5 -152.5t78.5 -51.5q58 0 79.5 52t21.5 152v31q0 100 -21.5 152.5 t-79.5 52.5q-57 0 -78.5 -52t-21.5 -153v-31zM858 344q0 105 19 178t57 115t88 60t119 18q92 0 152 -32.5t95 -116t35 -222.5q0 -204 -70.5 -286.5t-211.5 -82.5q-140 0 -211.5 83t-71.5 286zM1040 330q0 -100 21.5 -152.5t79.5 -52.5q57 0 78.5 52t21.5 153v30 q0 101 -21.5 153t-78.5 52q-58 0 -79.5 -52.5t-21.5 -152.5v-30z" />
<glyph unicode="&#x26;" horiz-adv-x="1212" d="M74 377q0 134 65 221t174 123v8q-100 49 -155.5 123.5t-55.5 191.5q0 184 127 285t342 101q199 0 324 -106t125 -280v-57h-246v39q0 197 -207 197q-98 0 -153.5 -50.5t-55.5 -138.5q0 -100 56 -158.5t145 -58.5h84v-207h-78q-235 0 -235 -221q0 -103 59.5 -155t165.5 -52 q109 0 164 54t55 155v426h408v-207h-162v-213q0 -195 -122 -308.5t-347 -113.5q-212 0 -344.5 108.5t-132.5 293.5z" />
<glyph unicode="'" horiz-adv-x="399" d="M76 1104v301h250v-301l-43 -270h-162z" />
<glyph unicode="(" horiz-adv-x="559" d="M61 590q0 252 79 489t227 426h161q-107 -198 -174 -440t-67 -471q0 -230 67 -474t174 -442h-161q-148 189 -227 424.5t-79 487.5z" />
<glyph unicode=")" horiz-adv-x="559" d="M31 -322q107 198 174 442t67 474q0 229 -67 471t-174 440h162q147 -189 226 -425.5t79 -489.5q0 -252 -78.5 -487.5t-226.5 -424.5h-162z" />
<glyph unicode="*" horiz-adv-x="653" d="M16 1006l191 86l-191 90l80 135l172 -121l-20 209h160l-21 -207l172 119l80 -135l-190 -90l190 -86l-80 -140l-172 123l21 -209h-160l20 209l-172 -123z" />
<glyph unicode="+" horiz-adv-x="980" d="M68 416v213h315v418h211v-418h317v-213h-317v-416h-211v416h-315z" />
<glyph unicode="," horiz-adv-x="466" d="M92 0v281h283v-256l-135 -344h-148l113 319h-113z" />
<glyph unicode="-" horiz-adv-x="559" d="M33 432v242h493v-242h-493z" />
<glyph unicode="." horiz-adv-x="466" d="M92 0v281h283v-281h-283z" />
<glyph unicode="/" horiz-adv-x="466" d="M2 -100l291 1605h174l-289 -1605h-176z" />
<glyph unicode="0" d="M61 702q0 210 27 354t81.5 225t126 115t171.5 34q99 0 170.5 -34t126 -115t81.5 -225t27 -354t-27 -354t-81.5 -224.5t-126 -114.5t-170.5 -34q-79 0 -140 20.5t-112.5 71t-84.5 132.5t-51 208t-18 295zM317 631q0 -245 30.5 -347t119.5 -102t119 102t30 347v143 q0 245 -30 347t-119 102t-119.5 -102t-30.5 -347v-143z" />
<glyph unicode="1" d="M80 1083v164q91 9 219.5 54t222.5 104h121v-1198h289v-207h-850v207h315v876h-317z" />
<glyph unicode="2" d="M68 0v49q0 89 30 174t77.5 154t105 135.5t115 131.5t105 129t77.5 140t30 154q0 60 -30.5 106t-98.5 46q-72 0 -106.5 -59.5t-34.5 -153.5v-84h-252q-6 33 -6 82q0 109 32.5 193t90 133.5t129.5 74.5t157 25q80 0 147 -21t119.5 -64t81.5 -114.5t29 -165.5 q0 -104 -42 -211t-107 -196.5t-131 -166t-127.5 -148t-83.5 -114.5h497v-229h-804z" />
<glyph unicode="3" d="M51 397v37h256v-43q0 -100 40 -154.5t116 -54.5q71 0 112 52t41 155q0 221 -167 221h-68v207h72q61 0 100 56t39 161q0 189 -129 189q-64 0 -97.5 -50t-33.5 -147v-39h-256v57q0 173 107.5 279.5t277.5 106.5q177 0 282 -101t105 -285q0 -212 -182 -315v-8 q94 -36 150 -123t56 -221q0 -185 -112 -293.5t-293 -108.5q-198 0 -307 113.5t-109 308.5z" />
<glyph unicode="4" d="M16 317v197q106 187 198 429t157 487h245q-52 -242 -178.5 -515.5t-208.5 -390.5h293v316q84 169 137 381h109v-697h143v-207h-143v-317h-246v317h-506z" />
<glyph unicode="5" d="M61 436h256q0 -118 42 -187t116 -69q72 0 115 72t43 207q0 120 -40 187t-104 67q-97 0 -151 -119l-238 33l47 778h680v-229h-462l-21 -332q86 69 201 69q151 0 246.5 -116t95.5 -338q0 -230 -110 -357t-302 -127q-189 0 -301.5 123.5t-112.5 337.5z" />
<glyph unicode="6" d="M61 662q0 173 18 304.5t51.5 219t84.5 142.5t112 78.5t140 23.5q126 0 210.5 -61t121.5 -161t37 -235h-252q0 125 -28.5 187.5t-96.5 62.5q-27 0 -48 -11t-35.5 -29.5t-25 -51t-17 -66t-10.5 -84.5t-5.5 -97t-2.5 -112q35 53 92.5 82t124.5 29q110 0 188 -59.5 t115 -160.5t37 -233q0 -207 -108.5 -331t-278.5 -124q-103 0 -178.5 35t-132 113t-85 212.5t-28.5 326.5zM330 430q0 -111 37 -179.5t108 -68.5t107 68.5t36 179.5q0 117 -36 184.5t-107 67.5t-108 -68t-37 -184z" />
<glyph unicode="7" d="M47 1176v229h840v-166q-414 -628 -414 -1135q0 -55 2 -104h-272q0 215 61.5 441t152 405t204.5 330h-574z" />
<glyph unicode="8" d="M61 385q0 246 181 336q-75 50 -113.5 132.5t-38.5 184.5q0 170 98.5 281t278.5 111t278.5 -111t98.5 -281q0 -101 -39.5 -184t-114.5 -133q182 -89 182 -336q0 -87 -23.5 -159.5t-71 -129.5t-127 -89t-183.5 -32t-184 32t-127.5 89t-71 129.5t-23.5 159.5zM315 397 q0 -106 39 -161.5t113 -55.5t112.5 55.5t38.5 161.5t-39 162.5t-112 56.5t-112.5 -56.5t-39.5 -162.5zM340 1022q0 -99 32.5 -151t94.5 -52t95.5 52t33.5 151t-33.5 151t-95.5 52t-94.5 -52t-32.5 -151z" />
<glyph unicode="9" d="M61 975q0 207 109 331t279 124q103 0 178.5 -35t131.5 -113t84.5 -212.5t28.5 -326.5q0 -216 -27 -366.5t-81 -238t-126 -125.5t-171 -38q-126 0 -210.5 61t-121.5 161t-37 235h252q0 -125 28.5 -187.5t96.5 -62.5q31 0 54 13.5t38.5 43.5t25 64.5t15 91.5t7.5 108.5 t3 129.5q-35 -53 -92.5 -82t-124.5 -29q-110 0 -188 59.5t-115 160.5t-37 233zM315 975q0 -117 36.5 -184.5t107.5 -67.5t108 68t37 184q0 111 -37 179.5t-108 68.5t-107.5 -68.5t-36.5 -179.5z" />
<glyph unicode=":" horiz-adv-x="559" d="M113 0v281h282v-281h-282zM113 797v280h282v-280h-282z" />
<glyph unicode=";" horiz-adv-x="559" d="M111 0v281h282v-256l-135 -344h-147l112 319h-112zM113 797v280h282v-280h-282z" />
<glyph unicode="&#x3c;" horiz-adv-x="980" d="M70 403v261l843 423v-241l-637 -311l637 -312v-241z" />
<glyph unicode="=" horiz-adv-x="980" d="M68 197v211h843v-211h-843zM68 631v213h843v-213h-843z" />
<glyph unicode="&#x3e;" horiz-adv-x="980" d="M70 -18v241l637 312l-637 311v241l843 -423v-261z" />
<glyph unicode="?" horiz-adv-x="1026" d="M96 1012q0 87 27.5 162t80 132.5t137 90.5t191.5 33q181 0 288.5 -101t107.5 -264q0 -121 -33.5 -198.5t-93.5 -149.5q-4 -4 -24 -27t-24.5 -28.5t-20.5 -26t-21 -30t-15 -29.5t-13.5 -35.5t-7 -36.5t-3.5 -43v-58h-258v89q0 44 9 81t31.5 74t36 55t46.5 58q40 48 61 79 t41 86.5t20 116.5q0 21 -5 44.5t-18.5 54t-44.5 50t-75 19.5q-48 0 -82 -22t-49 -58t-21 -68.5t-6 -66.5l2 -55h-258q-6 47 -6 72zM403 0v281h283v-281h-283z" />
<glyph unicode="@" horiz-adv-x="1638" d="M51 537q0 191 41.5 343t114 254t174 169.5t216.5 97t247 29.5q165 0 298 -44.5t234.5 -135.5t157 -241.5t55.5 -351.5q0 -134 -26 -241.5t-68 -175t-96.5 -113t-108.5 -64t-108 -18.5q-94 0 -140.5 32.5t-72.5 96.5h-11q-45 -66 -99.5 -97.5t-145.5 -31.5 q-31 0 -61.5 6.5t-64.5 25.5t-60 48t-43 79.5t-17 114.5q0 96 35 164.5t101.5 106.5t151.5 55t197 17v102q0 58 -21 89.5t-81 31.5q-63 0 -90 -30.5t-27 -72.5v-26h-217q-2 10 -2 41q0 122 90 196t240 74q167 0 250.5 -75t83.5 -214v-467q0 -78 61 -78q38 0 71.5 22t63.5 69 t48 133.5t18 201.5q0 163 -43.5 285t-124 196.5t-188 111t-242.5 36.5q-303 0 -472 -190t-169 -563q0 -355 141.5 -531t435.5 -176q72 0 174 19.5t154 46.5v-152q-60 -23 -159.5 -39t-168.5 -16q-171 0 -303.5 50t-228 152.5t-145.5 265.5t-50 382zM696 340q0 -109 109 -109 q75 0 111 59.5t36 153.5v56q-256 0 -256 -160z" />
<glyph unicode="A" horiz-adv-x="1212" d="M0 0l453 1405h305l452 -1405h-268l-86 276h-518l-84 -276h-254zM410 510h374l-141 469q-10 33 -20.5 80.5t-15.5 78.5l-5 31h-8q-21 -124 -41 -190z" />
<glyph unicode="B" horiz-adv-x="1212" d="M123 0v1405h604q167 0 275 -97t108 -251q0 -117 -60 -201.5t-155 -118.5v-8q109 -34 178.5 -127.5t69.5 -224.5q0 -114 -57.5 -201.5t-151 -131.5t-207.5 -44h-604zM385 233h299q84 0 137 46.5t53 130.5q0 86 -51.5 140t-150.5 54h-287v-371zM385 836h270 q90 0 138.5 49.5t48.5 124.5q0 78 -47 119.5t-127 41.5h-283v-335z" />
<glyph unicode="C" horiz-adv-x="1212" d="M70 702q0 365 145 546.5t414 181.5q112 0 204.5 -32.5t163 -97.5t109.5 -171.5t39 -245.5h-268q0 158 -67 239.5t-181 81.5q-144 0 -216.5 -117.5t-72.5 -332.5v-103q0 -215 74.5 -332.5t222.5 -117.5q118 0 185 80.5t67 238.5h256q0 -135 -38.5 -240t-108.5 -171 t-163 -100t-206 -34q-270 0 -414.5 181t-144.5 546z" />
<glyph unicode="D" horiz-adv-x="1212" d="M123 0v1405h457q267 0 415 -174t148 -508q0 -355 -148 -539t-415 -184h-457zM385 233h170q149 0 233 111.5t84 327.5v102q0 194 -84 295.5t-233 101.5h-170v-938z" />
<glyph unicode="E" horiz-adv-x="1120" d="M123 0v1405h895v-234h-633v-335h543v-234h-543v-369h645v-233h-907z" />
<glyph unicode="F" horiz-adv-x="1026" d="M123 0v1405h825v-234h-563v-354h481v-233h-481v-584h-262z" />
<glyph unicode="G" horiz-adv-x="1306" d="M70 702q0 366 153.5 547t442.5 181q107 0 203 -34t170.5 -97.5t118.5 -163.5t44 -222h-268q0 137 -79 214t-198 77q-160 0 -238.5 -117t-78.5 -333v-103q0 -450 319 -450q121 0 198 93t77 245h-316v225h584v-764h-170l-45 156q-67 -88 -165 -134.5t-210 -46.5 q-263 0 -402.5 179.5t-139.5 547.5z" />
<glyph unicode="H" horiz-adv-x="1212" d="M123 0v1405h262v-569h442v569h263v-1405h-263v602h-442v-602h-262z" />
<glyph unicode="I" horiz-adv-x="466" d="M102 0v1405h263v-1405h-263z" />
<glyph unicode="J" d="M18 334v108h261v-88q0 -74 35 -113.5t102 -39.5q65 0 99 39.5t34 113.5v1051h262v-1071q0 -174 -102 -266.5t-293 -92.5t-294.5 92.5t-103.5 266.5z" />
<glyph unicode="K" horiz-adv-x="1212" d="M123 0v1405h264v-719l514 719h293l-416 -571l428 -834h-295l-305 627l-219 -269v-358h-264z" />
<glyph unicode="L" horiz-adv-x="1026" d="M123 0v1405h262v-1159h594v-246h-856z" />
<glyph unicode="M" horiz-adv-x="1398" d="M109 0v1405h368l174 -774q9 -41 23 -120.5t24 -138.5l9 -59h8q29 236 47 318l172 774h356v-1405h-241v895l10 225h-8l-246 -1120h-227l-248 1120h-8q10 -170 10 -225v-895h-223z" />
<glyph unicode="N" horiz-adv-x="1212" d="M123 0v1405h231l434 -774q10 -16 26 -48.5t27 -57.5l11 -25l6 6q-2 94 -2 117v782h234v-1405h-234l-434 774l-64 131l-8 -6q4 -80 4 -117v-782h-231z" />
<glyph unicode="O" horiz-adv-x="1306" d="M70 702q0 364 152.5 546t430.5 182t431 -182t153 -546t-153 -545.5t-431 -181.5t-430.5 181.5t-152.5 545.5zM340 651q0 -214 79.5 -332t233.5 -118t234 118t80 332v103q0 214 -80 332t-234 118t-233.5 -118t-79.5 -332v-103z" />
<glyph unicode="P" horiz-adv-x="1120" d="M123 0v1405h502q212 0 326 -116t114 -306q0 -198 -121 -318t-319 -120h-240v-545h-262zM385 776h213q94 0 145.5 54.5t51.5 152.5q0 87 -52 137.5t-145 50.5h-213v-395z" />
<glyph unicode="Q" horiz-adv-x="1306" d="M70 702q0 364 152.5 546t430.5 182t431 -182t153 -546q0 -512 -305 -667l270 -289h-321l-203 229h-25q-278 0 -430.5 181.5t-152.5 545.5zM340 651q0 -214 79.5 -332t233.5 -118t234 118t80 332v103q0 214 -80 332t-234 118t-233.5 -118t-79.5 -332v-103z" />
<glyph unicode="R" horiz-adv-x="1212" d="M123 0v1405h588q207 0 318.5 -110.5t111.5 -290.5q0 -126 -63 -221t-173 -140l271 -643h-285l-234 586h-272v-586h-262zM385 817h289q184 0 184 187q0 79 -43 123t-131 44h-299v-354z" />
<glyph unicode="S" horiz-adv-x="1120" d="M61 412q0 9 1 25t1 20h273q0 -1 -1 -14t-1 -19q0 -101 59.5 -162t165.5 -61q110 0 161.5 48t51.5 118q0 53 -23.5 93t-63 65t-90.5 45t-107.5 38t-113 38.5t-107.5 52.5t-90.5 75t-63 109.5t-23.5 152.5q0 128 66.5 219t170.5 133t232 42q96 0 177 -24.5t144.5 -73.5 t99.5 -130t36 -186v-25h-268v19q0 90 -51 142t-140 52q-93 0 -145 -41.5t-52 -107.5q0 -45 23.5 -79.5t63 -56.5t90.5 -40t107.5 -35.5t113 -38.5t107.5 -53t90.5 -74.5t63 -107.5t23.5 -148q0 -118 -36 -205t-103 -139.5t-155.5 -77.5t-200.5 -25q-98 0 -185 28 t-154.5 81.5t-107 138t-39.5 189.5z" />
<glyph unicode="T" horiz-adv-x="1026" d="M35 1171v234h958v-234h-348v-1171h-262v1171h-348z" />
<glyph unicode="U" horiz-adv-x="1212" d="M125 440v965h262v-956q0 -121 57 -184.5t162 -63.5t163 64t58 184v956h263v-965q0 -226 -127.5 -345.5t-356.5 -119.5q-228 0 -354.5 119.5t-126.5 345.5z" />
<glyph unicode="V" horiz-adv-x="1120" d="M0 1405h270l295 -1006h8l291 1006h256l-428 -1405h-264z" />
<glyph unicode="W" horiz-adv-x="1585" d="M0 1405h260l168 -864q5 -27 12 -76.5t11 -84.5l4 -36h8q14 138 26 197l170 864h297l168 -864l27 -197h8q13 127 27 197l172 864h225l-305 -1405h-264l-191 895q-7 32 -14 81.5t-11 83.5l-3 34h-9q-16 -140 -28 -199l-189 -895h-264z" />
<glyph unicode="X" horiz-adv-x="1120" d="M0 0l397 737l-360 668h293l235 -459h8l236 459h272l-362 -664l399 -741h-291l-274 530h-8l-273 -530h-272z" />
<glyph unicode="Y" horiz-adv-x="1120" d="M0 1405h276l287 -617h8l285 617h264l-428 -875v-530h-262v530z" />
<glyph unicode="Z" horiz-adv-x="1026" d="M33 0v100l577 1071h-534v234h893v-102l-578 -1070h592v-233h-950z" />
<glyph unicode="[" horiz-adv-x="559" d="M100 -330v1835h408v-194h-170v-1446h170v-195h-408z" />
<glyph unicode="\" horiz-adv-x="466" d="M2 1505h174l291 -1605h-176z" />
<glyph unicode="]" horiz-adv-x="559" d="M51 -135h170v1446h-170v194h408v-1835h-408v195z" />
<glyph unicode="^" horiz-adv-x="980" d="M66 602l319 803h219l322 -803h-226l-206 553l-203 -553h-225z" />
<glyph unicode="_" d="M0 -129h932v-141h-932v141z" />
<glyph unicode="`" horiz-adv-x="559" d="M43 1475l2 6h246l176 -271h-203z" />
<glyph unicode="a" d="M29 279q0 106 38.5 181t112 116.5t167 60t216.5 18.5v113q0 64 -23.5 98.5t-88.5 34.5q-68 0 -98.5 -33.5t-30.5 -79.5v-30h-240q-2 12 -2 45q0 135 99.5 217t264.5 82q184 0 275.5 -82t91.5 -236v-530q0 -36 16.5 -54t40.5 -18h50v-174q-64 -33 -146 -33 q-72 0 -121.5 38.5t-68.5 103.5h-11q-33 -47 -66 -76t-85 -47.5t-121 -18.5q-33 0 -66.5 7.5t-71.5 28t-66 53t-47 88t-19 127.5zM281 301q0 -121 120 -121q83 0 122.5 66t39.5 170v61q-58 0 -105 -8.5t-88.5 -27t-65 -54.5t-23.5 -86z" />
<glyph unicode="b" horiz-adv-x="1026" d="M113 0v1481h245v-514h11q29 64 92.5 99.5t146.5 35.5q151 0 242.5 -140t91.5 -421q0 -286 -90.5 -426t-255.5 -140q-78 0 -141.5 40.5t-102.5 117.5h-10l-25 -133h-204zM358 500q0 -151 38.5 -226t125.5 -75t125.5 75t38.5 226v78q0 151 -38.5 226t-125.5 75t-125.5 -77 t-38.5 -229v-73z" />
<glyph unicode="c" d="M84 539q0 288 99 425.5t300 137.5q178 0 277.5 -105.5t99.5 -324.5h-252q0 223 -125 223q-76 0 -109.5 -78.5t-33.5 -238.5v-78q0 -160 35.5 -239t116.5 -79q65 0 94.5 55.5t29.5 168.5h244q0 -219 -96.5 -325t-271.5 -106q-211 0 -309.5 136.5t-98.5 427.5z" />
<glyph unicode="d" horiz-adv-x="1026" d="M84 541q0 281 91.5 421t242.5 140q83 0 146.5 -35.5t92.5 -99.5h11v514h245v-1481h-204l-25 133h-10q-39 -77 -102.5 -117.5t-141.5 -40.5q-165 0 -255.5 140t-90.5 426zM340 500q0 -151 38.5 -226t125.5 -75t125.5 75t38.5 226v73q0 152 -38.5 229t-125.5 77t-125.5 -75 t-38.5 -226v-78z" />
<glyph unicode="e" d="M63 539q0 563 414 563q196 0 292.5 -137.5t96.5 -425.5v-62h-547q2 -151 40 -226t126 -75q64 0 101 54.5t37 150.5h243q0 -200 -104.5 -303t-276.5 -103q-422 0 -422 564zM322 655h286q0 246 -131 246q-75 0 -112 -62t-43 -184z" />
<glyph unicode="f" horiz-adv-x="559" d="M18 870v207h109v131q0 57 12.5 106t40 91.5t79 67t122.5 24.5q96 0 178 -24v-183h-100q-41 0 -63.5 -22.5t-22.5 -65.5v-125h186v-207h-186v-870h-246v870h-109z" />
<glyph unicode="g" horiz-adv-x="1026" d="M33 -125q0 143 137 219q-86 54 -86 162q0 67 44 115t114 73q-131 96 -131 291q0 169 103.5 268t293.5 99q101 0 180 -31q55 39 80 93t25 93h202q0 -221 -174 -274q86 -95 86 -248q0 -169 -103.5 -267.5t-295.5 -98.5h-102q-32 0 -53 -19t-21 -47t17.5 -45.5t45.5 -17.5 h373q104 0 175 -77.5t71 -203.5q0 -148 -100 -240t-248 -92h-396q-100 0 -168.5 69.5t-68.5 178.5zM281 -86q0 -45 28 -72.5t70 -27.5h276q47 0 79 27.5t32 72.5t-28.5 71.5t-71.5 26.5h-287q-41 0 -69.5 -29t-28.5 -69zM356 735q0 -87 39 -135.5t113 -48.5q75 0 114.5 48 t39.5 136t-39.5 136.5t-114.5 48.5q-74 0 -113 -49t-39 -136z" />
<glyph unicode="h" horiz-adv-x="1026" d="M113 0v1481h245v-518h9q41 59 106.5 99t153.5 40q133 0 209.5 -82.5t76.5 -263.5v-756h-245v688q0 191 -142 191q-72 0 -120 -62t-48 -153v-664h-245z" />
<glyph unicode="i" horiz-adv-x="466" d="M111 0v1077h245v-1077h-245zM111 1257v224h245v-224h-245z" />
<glyph unicode="j" horiz-adv-x="466" d="M-76 -166h90q47 0 72 25.5t25 72.5v1145h245v-1161q0 -58 -12 -106.5t-38.5 -91t-77.5 -67t-122 -24.5q-92 0 -182 25v182zM111 1257v224h245v-224h-245z" />
<glyph unicode="k" d="M111 0v1481h245v-832l301 428h263l-320 -438l336 -639h-272l-218 446l-90 -110v-336h-245z" />
<glyph unicode="l" horiz-adv-x="466" d="M111 0v1481h245v-1481h-245z" />
<glyph unicode="m" horiz-adv-x="1492" d="M113 0v1077h204l25 -133h12q42 70 107.5 114t148.5 44q172 0 232 -158q46 69 116.5 113.5t161.5 44.5q266 0 266 -346v-756h-245v688q0 102 -29 146.5t-92 44.5q-62 0 -106 -56t-44 -143v-680h-241v688q0 102 -30 146.5t-93 44.5q-64 0 -106 -60.5t-42 -154.5v-664h-245z " />
<glyph unicode="n" horiz-adv-x="1026" d="M113 0v1077h204l25 -133h12q103 158 273 158q133 0 209.5 -82.5t76.5 -263.5v-756h-245v688q0 191 -142 191q-72 0 -120 -62t-48 -153v-664h-245z" />
<glyph unicode="o" horiz-adv-x="1026" d="M84 539q0 288 106.5 425.5t323.5 137.5t323.5 -137.5t106.5 -425.5t-106.5 -426t-323.5 -138t-323.5 138t-106.5 426zM340 500q0 -160 40.5 -239t133.5 -79t133.5 79t40.5 239v78q0 160 -40.5 238.5t-133.5 78.5t-133.5 -78.5t-40.5 -238.5v-78z" />
<glyph unicode="p" horiz-adv-x="1026" d="M113 -354v1431h204l25 -133h10q39 77 102.5 117.5t141.5 40.5q165 0 255.5 -140t90.5 -425q0 -281 -91.5 -421.5t-242.5 -140.5q-82 0 -146 36t-93 100h-11v-465h-245zM358 504q0 -151 38.5 -228t125.5 -77t125.5 75t38.5 226v78q0 151 -38.5 226t-125.5 75t-125.5 -75 t-38.5 -226v-74z" />
<glyph unicode="q" horiz-adv-x="1026" d="M84 537q0 285 90.5 425t255.5 140q78 0 141.5 -40.5t102.5 -117.5h10l25 133h204v-1431h-245v465h-11q-29 -64 -93 -100t-146 -36q-151 0 -242.5 140.5t-91.5 421.5zM340 500q0 -151 38.5 -226t125.5 -75t125.5 77t38.5 228v74q0 151 -38.5 226t-125.5 75t-125.5 -75 t-38.5 -226v-78z" />
<glyph unicode="r" horiz-adv-x="653" d="M113 0v1077h204l29 -157h12q26 82 69.5 132t117.5 50q28 0 53.5 -4t37.5 -8l11 -5v-237h-88q-89 0 -145 -58t-56 -190v-600h-245z" />
<glyph unicode="s" d="M68 317l2 25h249v-14q1 -79 44 -115.5t104 -36.5q58 0 100.5 28.5t42.5 88.5q0 46 -29 76t-75.5 46.5t-102.5 30.5t-112 36t-102.5 54t-75.5 92.5t-29 145.5q0 158 108 243t277 85q158 0 261.5 -79t103.5 -214q0 -10 -1 -21.5t-1 -18.5l-1 -7h-249q0 68 -33 106 q-29 33 -88 33q-58 0 -92.5 -28.5t-34.5 -77.5q0 -42 29 -69t75.5 -41.5t102.5 -28t112 -35t102.5 -54t75.5 -94.5t29 -149q0 -349 -401 -349q-184 0 -287.5 93t-103.5 249z" />
<glyph unicode="t" horiz-adv-x="559" d="M18 870v207h109l37 303h209v-303h155v-207h-155v-600q0 -43 22.5 -65.5t63.5 -22.5h69v-182q-73 -25 -147 -25q-71 0 -122.5 24.5t-79 67t-40 91.5t-12.5 106v606h-109z" />
<glyph unicode="u" horiz-adv-x="1026" d="M113 322v755h245v-688q0 -101 35.5 -145.5t106.5 -44.5q72 0 120 60t48 151v667h245v-1077h-204l-25 133h-12q-103 -158 -273 -158q-133 0 -209.5 83t-76.5 264z" />
<glyph unicode="v" d="M8 1077h258l140 -463q11 -36 28 -117t28 -143l11 -63h8q33 229 62 323l137 463h246l-334 -1077h-250z" />
<glyph unicode="w" horiz-adv-x="1306" d="M2 1077h246l102 -442q15 -64 25.5 -148.5t14.5 -136.5l3 -53h8q14 182 45 336l93 444h245l93 -446q10 -46 21.5 -129.5t17.5 -143.5l6 -61h8q28 213 53 334l94 446h228l-261 -1077h-247l-107 514q-10 48 -18 114.5t-10 109.5l-3 42h-12q-8 -153 -31 -264l-104 -516h-248z " />
<glyph unicode="x" d="M10 0l312 557l-287 520h278q121 -243 160 -313h10q62 117 160 313h264l-291 -514l308 -563h-277l-182 356h-10q-77 -153 -183 -356h-262z" />
<glyph unicode="y" d="M8 1077h260l162 -506q12 -36 26.5 -106t22.5 -122l8 -52h9q26 186 51 278l133 508h246l-295 -1022q-27 -94 -59.5 -166t-78 -134t-107 -95t-136.5 -33q-44 0 -83.5 4.5t-58 9t-18.5 5.5v188h111q56 0 100.5 40.5t65.5 125.5z" />
<glyph unicode="z" horiz-adv-x="839" d="M37 0v104l418 766h-394v207h727v-102l-419 -768h434v-207h-766z" />
<glyph unicode="{" horiz-adv-x="653" d="M49 496v188q64 0 111 30t47 93v395q0 75 22.5 130.5t58 88t90 52t109 26t123.5 6.5v-157q-161 0 -161 -125q0 -77 -7 -217.5t-8 -184.5q-3 -109 -54.5 -165t-166.5 -56v-20q115 0 165.5 -56t55.5 -166q1 -44 8 -184t7 -217q0 -125 161 -125v-158q-69 0 -123.5 6.5 t-109 26t-90 52t-58 88t-22.5 130.5v396q0 63 -47 93t-111 30z" />
<glyph unicode="|" horiz-adv-x="471" d="M143 -354v1835h185v-1835h-185z" />
<glyph unicode="}" horiz-adv-x="653" d="M43 -168q162 0 162 125q0 78 6.5 220.5t7.5 180.5q5 110 55.5 166t165.5 56v20q-115 0 -166.5 56t-54.5 165q-1 38 -7.5 181t-6.5 221q0 125 -162 125v157q69 0 123.5 -6.5t109 -26t90 -52t58 -88t22.5 -130.5v-395q0 -63 47 -93t111 -30v-188q-64 0 -111 -30t-47 -93 v-396q0 -75 -22.5 -130.5t-58 -88t-90 -52t-109 -26t-123.5 -6.5v158z" />
<glyph unicode="~" horiz-adv-x="980" d="M55 403v246q3 6 10 16t30.5 36t50.5 46t70.5 36t90.5 16q44 0 94 -19.5t88 -43t89 -43t96 -19.5q41 0 82 15.5t70.5 37t53 43.5t34.5 38l12 15v-245q-3 -6 -10 -16t-30.5 -36t-50.5 -46t-70.5 -36t-90.5 -16q-44 0 -94 19.5t-88 43t-89 43t-96 19.5q-41 0 -82 -15.5 t-70.5 -37.5t-53 -44t-35.5 -38z" />
<glyph unicode="&#xa1;" horiz-adv-x="559" d="M123 -328l72 1002h167l74 -1002h-313zM139 797v280h283v-280h-283z" />
<glyph unicode="&#xa2;" d="M84 702q0 266 84.5 403.5t255.5 156.5v219h113v-217q154 -16 238.5 -121.5t84.5 -306.5h-227q0 186 -96 221v-713q104 29 104 225h219q0 -205 -84.5 -310.5t-238.5 -117.5v-241h-113v243q-174 20 -257 156.5t-83 402.5zM315 664q0 -262 109 -312v703q-109 -46 -109 -314 v-77z" />
<glyph unicode="&#xa3;" d="M18 590v207h127v225q0 201 97.5 304.5t273.5 103.5q173 0 272 -102t99 -296v-26h-244v53q0 80 -33.5 122t-93.5 42q-58 0 -90.5 -38t-32.5 -110v-278h246v-207h-248l-22 -369h503v-221h-831v221h104v369h-127z" />
<glyph unicode="&#xa4;" d="M0 356l102 103q-57 108 -57 241q0 131 55 238l-100 102l123 127l86 -86q119 101 258 101q137 0 256 -101l86 86l123 -127l-101 -100q58 -113 58 -240q0 -126 -60 -243l103 -101l-125 -125l-86 86q-117 -96 -254 -96q-139 0 -256 96l-86 -86zM217 700q0 -123 73.5 -208.5 t176.5 -85.5q102 0 175 86t73 208q0 124 -73 210.5t-175 86.5q-103 0 -176.5 -86.5t-73.5 -210.5z" />
<glyph unicode="&#xa5;" d="M8 1405h268l193 -539h8l191 539h256l-262 -617h215v-167h-287v-142h287v-166h-287v-313h-246v313h-287v166h285v144h-285v165h215z" />
<glyph unicode="&#xa6;" horiz-adv-x="471" d="M143 -354v762h185v-762h-185zM143 719v762h185v-762h-185z" />
<glyph unicode="&#xa7;" d="M76 549q0 83 34.5 160t98.5 133q-105 102 -105 260q0 159 107 243.5t278 84.5q158 0 261.5 -79t103.5 -214q0 -10 -0.5 -21.5t-1.5 -18.5v-7h-250q0 68 -33 106q-29 33 -88 33q-57 0 -92 -29t-35 -78q0 -55 29 -98t76 -72t103.5 -56.5t112.5 -60t103 -73t76 -105.5 t29 -149t-34.5 -161t-98.5 -132q104 -104 104 -260q0 -159 -107 -243.5t-278 -84.5q-158 0 -261.5 79t-103.5 214q0 10 0.5 21.5t1.5 18.5v7h250q0 -65 33 -106q29 -33 88 -33q58 0 92.5 28.5t34.5 77.5q0 55 -29 98t-75.5 72t-103 56.5t-113 60.5t-103 73.5t-75.5 105.5 t-29 149zM317 621q0 -30 7.5 -57.5t16 -47.5t29.5 -42.5t34 -35.5t44.5 -33t45 -28.5t52 -29.5t50.5 -28q45 55 45 117q0 30 -7 57t-17 47.5t-29.5 42t-35 35t-44.5 32t-46 28.5t-51.5 29t-50.5 28q-43 -57 -43 -114z" />
<glyph unicode="&#xa8;" horiz-adv-x="559" d="M-2 1257v224h205v-224h-205zM356 1257v224h205v-224h-205z" />
<glyph unicode="&#xa9;" horiz-adv-x="1236" d="M33 702q0 334 156.5 531t428.5 197t429 -197t157 -531q0 -333 -157 -530t-429 -197t-428.5 196.5t-156.5 530.5zM147 702q0 -283 126 -448.5t345 -165.5t345.5 166t126.5 448t-126.5 448.5t-345.5 166.5t-345 -166t-126 -449zM293 702q0 216 85.5 323.5t244.5 107.5 q138 0 221.5 -81t83.5 -243h-178q0 84 -34 127t-93 43q-74 0 -112 -64.5t-38 -181.5v-59q0 -117 39.5 -181.5t116.5 -64.5q59 0 93 42t34 126h172q0 -157 -83.5 -239.5t-221.5 -82.5q-159 0 -244.5 106.5t-85.5 321.5z" />
<glyph unicode="&#xaa;" horiz-adv-x="620" d="M29 948q0 138 92 196t260 58v76q0 39 -14.5 60.5t-53.5 21.5q-42 0 -59.5 -20t-17.5 -48v-20h-170q-3 12 -3 28q0 92 67 147.5t179 55.5q124 0 186 -55.5t62 -159.5v-348q0 -25 11 -37t28 -12h33v-127q-47 -21 -99 -21q-48 0 -81.5 26t-45.5 69h-8q-34 -47 -75.5 -71 t-108.5 -24q-29 0 -57.5 8.5t-58.5 29.5t-48 64t-18 103zM207 963q0 -74 74 -74q51 0 75.5 42t24.5 109v41q-174 0 -174 -118z" />
<glyph unicode="&#xab;" d="M39 668l278 409h187l-221 -409l221 -410h-187zM414 668l278 409h187l-222 -409l222 -410h-187z" />
<glyph unicode="&#xac;" horiz-adv-x="980" d="M59 717v231h852v-565h-213v334h-639z" />
<glyph unicode="&#xad;" horiz-adv-x="559" d="M33 432v242h493v-242h-493z" />
<glyph unicode="&#xae;" horiz-adv-x="1236" d="M33 702q0 334 156.5 531t428.5 197t429 -197t157 -531q0 -333 -157 -530t-429 -197t-428.5 196.5t-156.5 530.5zM147 702q0 -283 126 -448.5t345 -165.5t345.5 166t126.5 448t-126.5 448.5t-345.5 166.5t-345 -166t-126 -449zM356 287v831h324q100 0 165.5 -58.5 t65.5 -150.5q0 -146 -129 -194v-8q19 -7 37 -19t38.5 -36.5t33 -67.5t12.5 -99q0 -72 15 -104.5t45 -42.5v-41q-9 -6 -35 -11t-45 -5q-156 0 -156 157q0 187 -121 187h-74v-338h-176zM532 782h84q51 0 83 27t32 68q0 38 -29 59.5t-79 21.5h-91v-176z" />
<glyph unicode="&#xaf;" horiz-adv-x="559" d="M18 1227v178h523v-178h-523z" />
<glyph unicode="&#xb0;" horiz-adv-x="819" d="M115 1139q0 121 84.5 206t206.5 85q121 0 205.5 -84.5t84.5 -206.5t-84.5 -206.5t-205.5 -84.5q-122 0 -206.5 85t-84.5 206zM254 1139q0 -63 44.5 -107.5t107.5 -44.5t106 44.5t43 107.5t-43 106t-106 43t-107.5 -43t-44.5 -106z" />
<glyph unicode="&#xb1;" horiz-adv-x="1124" d="M139 0v211h844v-211h-844zM139 649v213h316v357h211v-357h317v-213h-317v-354h-211v354h-316z" />
<glyph unicode="&#xb2;" horiz-adv-x="559" d="M31 655v37q0 47 12 89t39 84t46 66.5t58 69.5q54 60 81.5 95t52 87t24.5 101q0 31 -15 53.5t-50 22.5t-53.5 -32t-18.5 -81v-57h-162q-6 26 -6 55q0 130 69.5 194t176.5 64q102 0 165.5 -54.5t63.5 -166.5q0 -69 -30.5 -137.5t-68.5 -114.5t-94 -112t-85 -111h282v-152 h-487z" />
<glyph unicode="&#xb3;" horiz-adv-x="559" d="M29 895v31h168v-35q0 -111 82 -111q36 0 56.5 27.5t20.5 83.5q0 119 -86 119h-51v137h53q30 0 50 30.5t20 86.5q0 98 -63 98q-68 0 -68 -102v-33h-168v43q0 105 65 169t168 64q107 0 171.5 -61t64.5 -172q0 -65 -27 -108t-77 -77q53 -26 84.5 -77.5t31.5 -124.5 q0 -113 -67 -178.5t-176 -65.5q-120 0 -186 68.5t-66 187.5z" />
<glyph unicode="&#xb4;" horiz-adv-x="559" d="M98 1210l176 271h246l2 -6l-221 -265h-203z" />
<glyph unicode="&#xb5;" horiz-adv-x="1026" d="M113 -354v1431h245v-688q0 -101 35.5 -145.5t106.5 -44.5q72 0 120 60t48 151v667h245v-1077h-204l-25 133h-12q-88 -158 -232 -158q-40 0 -82 17v-346h-245z" />
<glyph unicode="&#xb6;" d="M37 956q0 186 114.5 317.5t278.5 131.5h490v-156h-99v-1603h-166v1603h-108v-1603h-164v866q-149 20 -247.5 146t-98.5 298z" />
<glyph unicode="&#xb7;" horiz-adv-x="466" d="M109 569v269h247v-269h-247z" />
<glyph unicode="&#xb8;" horiz-adv-x="559" d="M74 -256h145q37 0 55.5 10.5t18.5 38.5q0 26 -15.5 37.5t-54.5 11.5h-67l22 181h139l-10 -91q72 -5 117 -39t45 -100q0 -39 -15 -69.5t-38 -48.5t-54 -29t-59 -15t-57 -4q-89 0 -172 17v100z" />
<glyph unicode="&#xb9;" horiz-adv-x="559" d="M66 1274v115q47 6 116.5 32.5t118.5 59.5h82v-684h135v-142h-450v142h151v477h-153z" />
<glyph unicode="&#xba;" horiz-adv-x="612" d="M20 1122q0 195 72 288t219 93t219 -93t72 -288t-72 -288t-219 -93t-219 93t-72 288zM203 1096q0 -103 25 -154t83 -51t83.5 51t25.5 154v53q0 103 -25.5 154t-83.5 51t-83 -51t-25 -154v-53z" />
<glyph unicode="&#xbb;" d="M55 258l221 410l-221 409h187l278 -409l-278 -410h-187zM430 258l221 410l-221 409h186l279 -409l-279 -410h-186z" />
<glyph unicode="&#xbc;" horiz-adv-x="1400" d="M66 1198v115q47 6 116.5 32.5t118.5 59.5h82v-684h135v-141h-450v141h151v477h-153zM266 -25l811 1455h135l-809 -1455h-137zM813 182v125q119 212 209 541h162q-30 -140 -98 -293.5t-119 -230.5h139v75q25 46 58.5 132t47.5 137h56v-344h86v-142h-86v-182h-162v182h-293 z" />
<glyph unicode="&#xbd;" horiz-adv-x="1400" d="M66 1198v115q47 6 116.5 32.5t118.5 59.5h82v-684h135v-141h-450v141h151v477h-153zM256 -25l811 1455h135l-809 -1455h-137zM870 0v37q0 47 12 88.5t39.5 84.5t46 66.5t58.5 69.5q54 60 81.5 95t52 87t24.5 101q0 31 -15.5 53.5t-50.5 22.5t-53 -32t-18 -81v-57h-162 q-6 26 -6 55q0 130 69 194t176 64q103 0 166.5 -54.5t63.5 -166.5q0 -69 -31 -137.5t-69 -114.5t-94 -112t-85 -111h283v-152h-488z" />
<glyph unicode="&#xbe;" horiz-adv-x="1400" d="M59 821v31h168v-35q0 -110 82 -110q36 0 57 27t21 83q0 119 -86 119h-51v137h53q30 0 50 30.5t20 86.5q0 98 -64 98q-67 0 -67 -102v-33h-168v43q0 105 65 169.5t168 64.5q107 0 171.5 -61.5t64.5 -172.5q0 -64 -27 -107t-78 -77q53 -26 85 -78t32 -125 q0 -112 -67.5 -178t-176.5 -66q-120 0 -186 68.5t-66 187.5zM258 -25l811 1455h135l-809 -1455h-137zM807 182v125q119 212 209 541h162q-30 -140 -98 -293.5t-119 -230.5h139v75q25 46 58.5 132t47.5 137h56v-344h86v-142h-86v-182h-162v182h-293z" />
<glyph unicode="&#xbf;" horiz-adv-x="1026" d="M98 12q0 85 20 155t44.5 108.5t64.5 84.5q5 6 26.5 31t27 33t22 30.5t22 36t14.5 35t12 43.5t3 47v58h258v-88q0 -44 -9 -81.5t-31 -74t-36.5 -55.5t-46.5 -58q-40 -49 -61 -78.5t-41 -85.5t-20 -118q0 -21 5 -44.5t18.5 -54t44.5 -50t75 -19.5q48 0 82 22t49 58t21 68.5 t6 66.5l-2 55h258q6 -46 6 -71q0 -87 -27.5 -162t-80 -132.5t-137 -90.5t-191.5 -33q-181 0 -288.5 100.5t-107.5 263.5zM340 797v280h283v-280h-283z" />
<glyph unicode="&#xc0;" horiz-adv-x="1212" d="M0 0l453 1405h305l452 -1405h-268l-86 276h-518l-84 -276h-254zM324 1802l2 6h245l177 -270h-203zM410 510h374l-141 469q-10 33 -20.5 80.5t-15.5 78.5l-5 31h-8q-21 -124 -41 -190z" />
<glyph unicode="&#xc1;" horiz-adv-x="1212" d="M0 0l453 1405h305l452 -1405h-268l-86 276h-518l-84 -276h-254zM410 510h374l-141 469q-10 33 -20.5 80.5t-15.5 78.5l-5 31h-8q-21 -124 -41 -190zM465 1538l176 270h246l2 -6l-221 -264h-203z" />
<glyph unicode="&#xc2;" horiz-adv-x="1212" d="M0 0l453 1405h305l452 -1405h-268l-86 276h-518l-84 -276h-254zM332 1532l176 276h201l174 -276h-185l-92 141l-92 -141h-182zM410 510h374l-141 469q-10 33 -20.5 80.5t-15.5 78.5l-5 31h-8q-21 -124 -41 -190z" />
<glyph unicode="&#xc3;" horiz-adv-x="1212" d="M0 0l453 1405h305l452 -1405h-268l-86 276h-518l-84 -276h-254zM262 1559q0 44 11.5 86.5t35 80t63.5 60t91 22.5t139 -37.5t133 -37.5q34 0 54 17t26 58h135q0 -45 -11.5 -87t-34.5 -79.5t-63.5 -60t-92.5 -22.5q-50 0 -138 37.5t-133 37.5q-69 0 -80 -75h-135zM410 510 h374l-141 469q-10 33 -20.5 80.5t-15.5 78.5l-5 31h-8q-21 -124 -41 -190z" />
<glyph unicode="&#xc4;" horiz-adv-x="1212" d="M0 0l453 1405h305l452 -1405h-268l-86 276h-518l-84 -276h-254zM326 1585v223h204v-223h-204zM410 510h374l-141 469q-10 33 -20.5 80.5t-15.5 78.5l-5 31h-8q-21 -124 -41 -190zM682 1585v223h207v-223h-207z" />
<glyph unicode="&#xc5;" horiz-adv-x="1212" d="M0 0l453 1405h305l452 -1405h-268l-86 276h-518l-84 -276h-254zM410 510h374l-141 469q-10 33 -20.5 80.5t-15.5 78.5l-5 31h-8q-21 -124 -41 -190zM410 1673q0 82 57 139.5t139 57.5t139.5 -58.5t57.5 -138.5q0 -82 -57.5 -139t-139.5 -57q-80 0 -138 57t-58 139z M512 1673q0 -40 27 -67t67 -27q39 0 66.5 27.5t27.5 66.5t-27.5 66.5t-66.5 27.5q-40 0 -67 -27t-27 -67z" />
<glyph unicode="&#xc6;" horiz-adv-x="1679" d="M-16 0l538 1405h1057v-234h-682l82 -335h510v-234h-453l90 -369h465v-233h-676l-67 276h-518l-103 -276h-243zM416 510h377l-144 608h-8z" />
<glyph unicode="&#xc7;" horiz-adv-x="1212" d="M70 702q0 365 145 546.5t414 181.5q112 0 204.5 -32.5t163 -97.5t109.5 -171.5t39 -245.5h-268q0 158 -67 239.5t-181 81.5q-144 0 -216.5 -117.5t-72.5 -332.5v-103q0 -215 74.5 -332.5t222.5 -117.5q118 0 185 80.5t67 238.5h256q0 -252 -128 -390.5t-341 -152.5 l-4 -45q72 -5 117 -39t45 -100q0 -49 -22 -83.5t-58 -51.5t-71 -24t-73 -7q-89 0 -172 17v100h146q36 0 54.5 10.5t18.5 38.5q0 26 -15 37.5t-54 11.5h-68l17 140q-227 28 -347 207t-120 513z" />
<glyph unicode="&#xc8;" horiz-adv-x="1120" d="M123 0v1405h895v-234h-633v-335h543v-234h-543v-369h645v-233h-907zM276 1802l3 6h245l176 -270h-202z" />
<glyph unicode="&#xc9;" horiz-adv-x="1120" d="M123 0v1405h895v-234h-633v-335h543v-234h-543v-369h645v-233h-907zM420 1538l176 270h246l2 -6l-221 -264h-203z" />
<glyph unicode="&#xca;" horiz-adv-x="1120" d="M123 0v1405h895v-234h-633v-335h543v-234h-543v-369h645v-233h-907zM285 1532l176 276h201l174 -276h-185l-90 141l-92 -141h-184z" />
<glyph unicode="&#xcb;" horiz-adv-x="1120" d="M123 0v1405h895v-234h-633v-335h543v-234h-543v-369h645v-233h-907zM279 1585v223h204v-223h-204zM637 1585v223h205v-223h-205z" />
<glyph unicode="&#xcc;" horiz-adv-x="466" d="M-49 1802l2 6h246l176 -270h-203zM102 0v1405h263v-1405h-263z" />
<glyph unicode="&#xcd;" horiz-adv-x="466" d="M92 1538l176 270h246l2 -6l-219 -264h-205zM102 0v1405h263v-1405h-263z" />
<glyph unicode="&#xce;" horiz-adv-x="466" d="M-43 1532l178 276h201l174 -276h-184l-90 141l-93 -141h-186zM102 0v1405h263v-1405h-263z" />
<glyph unicode="&#xcf;" horiz-adv-x="466" d="M-47 1585v223h205v-223h-205zM102 0v1405h263v-1405h-263zM311 1585v223h205v-223h-205z" />
<glyph unicode="&#xd0;" horiz-adv-x="1212" d="M20 639v174h103v592h457q267 0 415 -174t148 -508q0 -355 -148 -539t-415 -184h-457v639h-103zM385 233h170q149 0 233 111.5t84 327.5v102q0 194 -84 295.5t-233 101.5h-170v-358h256v-174h-256v-406z" />
<glyph unicode="&#xd1;" horiz-adv-x="1212" d="M123 0v1405h231l434 -774q10 -16 26 -48.5t27 -57.5l11 -25l6 6q-2 94 -2 117v782h234v-1405h-234l-434 774l-64 131l-8 -6q4 -80 4 -117v-782h-231zM262 1559q0 44 11.5 86.5t35 80t63.5 60t91 22.5t139 -37.5t133 -37.5q34 0 54 17t26 58h135q0 -45 -11.5 -87 t-34.5 -79.5t-63.5 -60t-92.5 -22.5q-50 0 -138 37.5t-133 37.5q-69 0 -80 -75h-135z" />
<glyph unicode="&#xd2;" horiz-adv-x="1306" d="M70 702q0 364 152.5 546t430.5 182t431 -182t153 -546t-153 -545.5t-431 -181.5t-430.5 181.5t-152.5 545.5zM340 651q0 -214 79.5 -332t233.5 -118t234 118t80 332v103q0 214 -80 332t-234 118t-233.5 -118t-79.5 -332v-103zM371 1802l2 6h245l177 -270h-203z" />
<glyph unicode="&#xd3;" horiz-adv-x="1306" d="M70 702q0 364 152.5 546t430.5 182t431 -182t153 -546t-153 -545.5t-431 -181.5t-430.5 181.5t-152.5 545.5zM340 651q0 -214 79.5 -332t233.5 -118t234 118t80 332v103q0 214 -80 332t-234 118t-233.5 -118t-79.5 -332v-103zM512 1538l176 270h248l2 -6l-221 -264h-205z " />
<glyph unicode="&#xd4;" horiz-adv-x="1306" d="M70 702q0 364 152.5 546t430.5 182t431 -182t153 -546t-153 -545.5t-431 -181.5t-430.5 181.5t-152.5 545.5zM340 651q0 -214 79.5 -332t233.5 -118t234 118t80 332v103q0 214 -80 332t-234 118t-233.5 -118t-79.5 -332v-103zM379 1532l176 276h201l174 -276h-185 l-90 141l-92 -141h-184z" />
<glyph unicode="&#xd5;" horiz-adv-x="1306" d="M70 702q0 364 152.5 546t430.5 182t431 -182t153 -546t-153 -545.5t-431 -181.5t-430.5 181.5t-152.5 545.5zM309 1559q0 61 20 115.5t68 94t115 39.5q51 0 138.5 -37.5t133.5 -37.5q34 0 53 17t25 58h137q0 -44 -12 -86.5t-35 -80t-63.5 -60t-91.5 -22.5 q-50 0 -138 37.5t-133 37.5q-69 0 -80 -75h-137zM340 651q0 -214 79.5 -332t233.5 -118t234 118t80 332v103q0 214 -80 332t-234 118t-233.5 -118t-79.5 -332v-103z" />
<glyph unicode="&#xd6;" horiz-adv-x="1306" d="M70 702q0 364 152.5 546t430.5 182t431 -182t153 -546t-153 -545.5t-431 -181.5t-430.5 181.5t-152.5 545.5zM340 651q0 -214 79.5 -332t233.5 -118t234 118t80 332v103q0 214 -80 332t-234 118t-233.5 -118t-79.5 -332v-103zM373 1585v223h205v-223h-205zM731 1585v223 h205v-223h-205z" />
<glyph unicode="&#xd7;" horiz-adv-x="980" d="M59 227l299 297l-299 299l148 148l297 -299l299 299l147 -148l-299 -299l299 -297l-147 -147l-299 299l-297 -299z" />
<glyph unicode="&#xd8;" horiz-adv-x="1306" d="M70 702q0 364 152.5 546t430.5 182q187 0 318 -82l84 133h172l-146 -232q156 -186 156 -547q0 -364 -153 -545.5t-431 -181.5q-184 0 -317 80l-82 -131h-172l143 230q-155 184 -155 548zM340 651q0 -150 37 -254l463 742q-71 65 -187 65q-154 0 -233.5 -118t-79.5 -332 v-103zM467 264q72 -63 186 -63q154 0 234 118t80 332v103q0 152 -39 250z" />
<glyph unicode="&#xd9;" horiz-adv-x="1212" d="M125 440v965h262v-956q0 -121 57 -184.5t162 -63.5t163 64t58 184v956h263v-965q0 -226 -127.5 -345.5t-356.5 -119.5q-228 0 -354.5 119.5t-126.5 345.5zM324 1802l2 6h245l177 -270h-203z" />
<glyph unicode="&#xda;" horiz-adv-x="1212" d="M125 440v965h262v-956q0 -121 57 -184.5t162 -63.5t163 64t58 184v956h263v-965q0 -226 -127.5 -345.5t-356.5 -119.5q-228 0 -354.5 119.5t-126.5 345.5zM465 1538l176 270h246l2 -6l-221 -264h-203z" />
<glyph unicode="&#xdb;" horiz-adv-x="1212" d="M125 440v965h262v-956q0 -121 57 -184.5t162 -63.5t163 64t58 184v956h263v-965q0 -226 -127.5 -345.5t-356.5 -119.5q-228 0 -354.5 119.5t-126.5 345.5zM332 1532l176 276h201l174 -276h-185l-92 141l-92 -141h-182z" />
<glyph unicode="&#xdc;" horiz-adv-x="1212" d="M125 440v965h262v-956q0 -121 57 -184.5t162 -63.5t163 64t58 184v956h263v-965q0 -226 -127.5 -345.5t-356.5 -119.5q-228 0 -354.5 119.5t-126.5 345.5zM326 1585v223h204v-223h-204zM682 1585v223h207v-223h-207z" />
<glyph unicode="&#xdd;" horiz-adv-x="1120" d="M0 1405h276l287 -617h8l285 617h264l-428 -875v-530h-262v530zM420 1538l176 270h246l2 -6l-221 -264h-203z" />
<glyph unicode="&#xde;" horiz-adv-x="1120" d="M123 0v1405h262v-250h240q212 0 326 -116t114 -306q0 -198 -121 -318t-319 -120h-240v-295h-262zM385 526h213q94 0 145.5 54.5t51.5 152.5q0 87 -52 138t-145 51h-213v-396z" />
<glyph unicode="&#xdf;" horiz-adv-x="1026" d="M82 0v1065q0 114 33.5 200t93.5 137.5t138 77t173 25.5q179 0 292.5 -103.5t113.5 -279.5q0 -102 -54.5 -191t-140.5 -122v-8q104 -38 171 -141t67 -222q0 -195 -117.5 -316.5t-292.5 -121.5h-133v209h106q78 0 133.5 68.5t55.5 162.5q0 92 -55.5 158t-133.5 66h-106v231 h100q63 0 107.5 65t44.5 156q0 82 -43.5 132t-124.5 50q-83 0 -132.5 -57t-49.5 -160v-1081h-246z" />
<glyph unicode="&#xe0;" d="M29 279q0 106 38.5 181t112 116.5t167 60t216.5 18.5v113q0 64 -23.5 98.5t-88.5 34.5q-68 0 -98.5 -33.5t-30.5 -79.5v-30h-240q-2 12 -2 45q0 135 99.5 217t264.5 82q184 0 275.5 -82t91.5 -236v-530q0 -36 16.5 -54t40.5 -18h50v-174q-64 -33 -146 -33 q-72 0 -121.5 38.5t-68.5 103.5h-11q-33 -47 -66 -76t-85 -47.5t-121 -18.5q-33 0 -66.5 7.5t-71.5 28t-66 53t-47 88t-19 127.5zM162 1475l2 6h246l176 -271h-203zM281 301q0 -121 120 -121q83 0 122.5 66t39.5 170v61q-58 0 -105 -8.5t-88.5 -27t-65 -54.5t-23.5 -86z" />
<glyph unicode="&#xe1;" d="M29 279q0 106 38.5 181t112 116.5t167 60t216.5 18.5v113q0 64 -23.5 98.5t-88.5 34.5q-68 0 -98.5 -33.5t-30.5 -79.5v-30h-240q-2 12 -2 45q0 135 99.5 217t264.5 82q184 0 275.5 -82t91.5 -236v-530q0 -36 16.5 -54t40.5 -18h50v-174q-64 -33 -146 -33 q-72 0 -121.5 38.5t-68.5 103.5h-11q-33 -47 -66 -76t-85 -47.5t-121 -18.5q-33 0 -66.5 7.5t-71.5 28t-66 53t-47 88t-19 127.5zM281 301q0 -121 120 -121q83 0 122.5 66t39.5 170v61q-58 0 -105 -8.5t-88.5 -27t-65 -54.5t-23.5 -86zM303 1210l176 271h246l2 -6l-221 -265 h-203z" />
<glyph unicode="&#xe2;" d="M29 279q0 106 38.5 181t112 116.5t167 60t216.5 18.5v113q0 64 -23.5 98.5t-88.5 34.5q-68 0 -98.5 -33.5t-30.5 -79.5v-30h-240q-2 12 -2 45q0 135 99.5 217t264.5 82q184 0 275.5 -82t91.5 -236v-530q0 -36 16.5 -54t40.5 -18h50v-174q-64 -33 -146 -33 q-72 0 -121.5 38.5t-68.5 103.5h-11q-33 -47 -66 -76t-85 -47.5t-121 -18.5q-33 0 -66.5 7.5t-71.5 28t-66 53t-47 88t-19 127.5zM170 1204l174 277h203l174 -277h-184l-93 142l-92 -142h-182zM281 301q0 -121 120 -121q83 0 122.5 66t39.5 170v61q-58 0 -105 -8.5 t-88.5 -27t-65 -54.5t-23.5 -86z" />
<glyph unicode="&#xe3;" d="M29 279q0 106 38.5 181t112 116.5t167 60t216.5 18.5v113q0 64 -23.5 98.5t-88.5 34.5q-68 0 -98.5 -33.5t-30.5 -79.5v-30h-240q-2 12 -2 45q0 135 99.5 217t264.5 82q184 0 275.5 -82t91.5 -236v-530q0 -36 16.5 -54t40.5 -18h50v-174q-64 -33 -146 -33 q-72 0 -121.5 38.5t-68.5 103.5h-11q-33 -47 -66 -76t-85 -47.5t-121 -18.5q-33 0 -66.5 7.5t-71.5 28t-66 53t-47 88t-19 127.5zM100 1231q0 98 47 168q58 82 154 82q51 0 139 -37q88 -39 133 -39q69 0 80 76h135q0 -45 -11.5 -87.5t-34.5 -79.5t-63.5 -60t-92.5 -23 q-50 0 -138 38t-133 38q-68 0 -79 -76h-136zM281 301q0 -121 120 -121q83 0 122.5 66t39.5 170v61q-58 0 -105 -8.5t-88.5 -27t-65 -54.5t-23.5 -86z" />
<glyph unicode="&#xe4;" d="M29 279q0 106 38.5 181t112 116.5t167 60t216.5 18.5v113q0 64 -23.5 98.5t-88.5 34.5q-68 0 -98.5 -33.5t-30.5 -79.5v-30h-240q-2 12 -2 45q0 135 99.5 217t264.5 82q184 0 275.5 -82t91.5 -236v-530q0 -36 16.5 -54t40.5 -18h50v-174q-64 -33 -146 -33 q-72 0 -121.5 38.5t-68.5 103.5h-11q-33 -47 -66 -76t-85 -47.5t-121 -18.5q-33 0 -66.5 7.5t-71.5 28t-66 53t-47 88t-19 127.5zM164 1257v224h205v-224h-205zM281 301q0 -121 120 -121q83 0 122.5 66t39.5 170v61q-58 0 -105 -8.5t-88.5 -27t-65 -54.5t-23.5 -86z M520 1257v224h205v-224h-205z" />
<glyph unicode="&#xe5;" d="M29 279q0 106 38.5 181t112 116.5t167 60t216.5 18.5v113q0 64 -23.5 98.5t-88.5 34.5q-68 0 -98.5 -33.5t-30.5 -79.5v-30h-240q-2 12 -2 45q0 135 99.5 217t264.5 82q184 0 275.5 -82t91.5 -236v-530q0 -36 16.5 -54t40.5 -18h50v-174q-64 -33 -146 -33 q-72 0 -121.5 38.5t-68.5 103.5h-11q-33 -47 -66 -76t-85 -47.5t-121 -18.5q-33 0 -66.5 7.5t-71.5 28t-66 53t-47 88t-19 127.5zM248 1346q0 82 57 139t139 57t139.5 -58t57.5 -138q0 -82 -57.5 -139.5t-139.5 -57.5q-80 0 -138 57.5t-58 139.5zM281 301q0 -121 120 -121 q83 0 122.5 66t39.5 170v61q-58 0 -105 -8.5t-88.5 -27t-65 -54.5t-23.5 -86zM350 1346q0 -40 27 -67.5t67 -27.5q39 0 67 28t28 67t-28 66.5t-67 27.5q-40 0 -67 -27t-27 -67z" />
<glyph unicode="&#xe6;" horiz-adv-x="1492" d="M76 279q0 106 38.5 181t112 116.5t167 60t216.5 18.5v113q0 64 -23.5 98.5t-88.5 34.5q-68 0 -98.5 -33.5t-30.5 -79.5v-30h-240q-2 12 -2 45q0 135 99.5 217t265.5 82q181 0 276 -103q97 103 256 103q196 0 292.5 -137.5t96.5 -425.5v-62h-547q2 -151 40 -226t126 -75 q63 0 100 54.5t37 150.5h244q0 -200 -104.5 -303t-276.5 -103q-217 0 -321 146q-132 -146 -324 -146q-39 0 -77.5 7.5t-82 28t-76 53t-54 88t-21.5 127.5zM328 301q0 -121 121 -121q83 0 122 66t39 170v61q-58 0 -105 -8.5t-88.5 -27t-65 -54.5t-23.5 -86zM868 655h287 q0 246 -131 246q-76 0 -113 -62.5t-43 -183.5z" />
<glyph unicode="&#xe7;" d="M84 539q0 288 99 425.5t300 137.5q178 0 277.5 -105.5t99.5 -324.5h-252q0 223 -125 223q-76 0 -109.5 -78.5t-33.5 -238.5v-78q0 -160 35.5 -239t116.5 -79q65 0 94.5 55.5t29.5 168.5h244q0 -204 -84 -309.5t-239 -119.5l-5 -45q72 -5 117 -39t45 -100q0 -39 -15 -69.5 t-38 -48.5t-54 -29t-59 -15t-57 -4q-89 0 -172 17v100h145q37 0 55.5 10.5t18.5 38.5q0 26 -15 37.5t-54 11.5h-66l16 142q-162 26 -238.5 161.5t-76.5 393.5z" />
<glyph unicode="&#xe8;" d="M63 539q0 563 414 563q196 0 292.5 -137.5t96.5 -425.5v-62h-547q2 -151 40 -226t126 -75q64 0 101 54.5t37 150.5h243q0 -200 -104.5 -303t-276.5 -103q-422 0 -422 564zM184 1475l2 6h246l176 -271h-202zM322 655h286q0 246 -131 246q-75 0 -112 -62t-43 -184z" />
<glyph unicode="&#xe9;" d="M63 539q0 563 414 563q196 0 292.5 -137.5t96.5 -425.5v-62h-547q2 -151 40 -226t126 -75q64 0 101 54.5t37 150.5h243q0 -200 -104.5 -303t-276.5 -103q-422 0 -422 564zM322 655h286q0 246 -131 246q-75 0 -112 -62t-43 -184zM326 1210l176 271h246l2 -6l-222 -265 h-202z" />
<glyph unicode="&#xea;" d="M63 539q0 563 414 563q196 0 292.5 -137.5t96.5 -425.5v-62h-547q2 -151 40 -226t126 -75q64 0 101 54.5t37 150.5h243q0 -200 -104.5 -303t-276.5 -103q-422 0 -422 564zM193 1204l176 277h200l174 -277h-184l-90 142l-92 -142h-184zM322 655h286q0 246 -131 246 q-75 0 -112 -62t-43 -184z" />
<glyph unicode="&#xeb;" d="M63 539q0 563 414 563q196 0 292.5 -137.5t96.5 -425.5v-62h-547q2 -151 40 -226t126 -75q64 0 101 54.5t37 150.5h243q0 -200 -104.5 -303t-276.5 -103q-422 0 -422 564zM186 1257v224h205v-224h-205zM322 655h286q0 246 -131 246q-75 0 -112 -62t-43 -184zM545 1257 v224h205v-224h-205z" />
<glyph unicode="&#xec;" horiz-adv-x="466" d="M-49 1475l2 6h246l176 -271h-203zM111 0v1077h245v-1077h-245z" />
<glyph unicode="&#xed;" horiz-adv-x="466" d="M92 1210l176 271h246l2 -6l-219 -265h-205zM111 0v1077h245v-1077h-245z" />
<glyph unicode="&#xee;" horiz-adv-x="466" d="M-43 1204l178 277h201l174 -277h-184l-90 142l-93 -142h-186zM111 0v1077h245v-1077h-245z" />
<glyph unicode="&#xef;" horiz-adv-x="466" d="M-47 1257v224h205v-224h-205zM111 0v1077h245v-1077h-245zM311 1257v224h205v-224h-205z" />
<glyph unicode="&#xf0;" horiz-adv-x="1026" d="M84 539q0 274 99 418.5t274 144.5q47 0 100 -17l6 9q-27 54 -78 125l-264 -23v150l154 14q-27 31 -109 113l4 8h258q49 -42 103 -99l266 25v-150l-154 -14q201 -296 201 -704q0 -288 -106.5 -426t-323.5 -138t-323.5 138t-106.5 426zM340 500q0 -160 40.5 -239t133.5 -79 t133.5 79t40.5 239v78q0 160 -40.5 238.5t-133.5 78.5t-133.5 -78.5t-40.5 -238.5v-78z" />
<glyph unicode="&#xf1;" horiz-adv-x="1026" d="M113 0v1077h204l25 -133h12q103 158 273 158q133 0 209.5 -82.5t76.5 -263.5v-756h-245v688q0 191 -142 191q-72 0 -120 -62t-48 -153v-664h-245zM170 1231q0 98 47 168q58 82 154 82q51 0 139 -37q88 -39 133 -39q69 0 80 76h135q0 -61 -19.5 -115.5t-67.5 -94.5 t-116 -40q-50 0 -137.5 38t-132.5 38q-69 0 -80 -76h-135z" />
<glyph unicode="&#xf2;" horiz-adv-x="1026" d="M84 539q0 288 106.5 425.5t323.5 137.5t323.5 -137.5t106.5 -425.5t-106.5 -426t-323.5 -138t-323.5 138t-106.5 426zM229 1475l2 6h246l176 -271h-202zM340 500q0 -160 40.5 -239t133.5 -79t133.5 79t40.5 239v78q0 160 -40.5 238.5t-133.5 78.5t-133.5 -78.5 t-40.5 -238.5v-78z" />
<glyph unicode="&#xf3;" horiz-adv-x="1026" d="M84 539q0 288 106.5 425.5t323.5 137.5t323.5 -137.5t106.5 -425.5t-106.5 -426t-323.5 -138t-323.5 138t-106.5 426zM340 500q0 -160 40.5 -239t133.5 -79t133.5 79t40.5 239v78q0 160 -40.5 238.5t-133.5 78.5t-133.5 -78.5t-40.5 -238.5v-78zM373 1210l176 271h246 l2 -6l-222 -265h-202z" />
<glyph unicode="&#xf4;" horiz-adv-x="1026" d="M84 539q0 288 106.5 425.5t323.5 137.5t323.5 -137.5t106.5 -425.5t-106.5 -426t-323.5 -138t-323.5 138t-106.5 426zM238 1204l176 277h200l174 -277h-184l-90 142l-92 -142h-184zM340 500q0 -160 40.5 -239t133.5 -79t133.5 79t40.5 239v78q0 160 -40.5 238.5 t-133.5 78.5t-133.5 -78.5t-40.5 -238.5v-78z" />
<glyph unicode="&#xf5;" horiz-adv-x="1026" d="M84 539q0 288 106.5 425.5t323.5 137.5t323.5 -137.5t106.5 -425.5t-106.5 -426t-323.5 -138t-323.5 138t-106.5 426zM170 1231q0 98 47 168q58 82 154 82q51 0 139 -37q88 -39 133 -39q69 0 80 76h135q0 -61 -19.5 -115.5t-67.5 -94.5t-116 -40q-50 0 -137.5 38 t-132.5 38q-69 0 -80 -76h-135zM340 500q0 -160 40.5 -239t133.5 -79t133.5 79t40.5 239v78q0 160 -40.5 238.5t-133.5 78.5t-133.5 -78.5t-40.5 -238.5v-78z" />
<glyph unicode="&#xf6;" horiz-adv-x="1026" d="M84 539q0 288 106.5 425.5t323.5 137.5t323.5 -137.5t106.5 -425.5t-106.5 -426t-323.5 -138t-323.5 138t-106.5 426zM231 1257v224h205v-224h-205zM340 500q0 -160 40.5 -239t133.5 -79t133.5 79t40.5 239v78q0 160 -40.5 238.5t-133.5 78.5t-133.5 -78.5t-40.5 -238.5 v-78zM590 1257v224h205v-224h-205z" />
<glyph unicode="&#xf7;" horiz-adv-x="1124" d="M68 416v213h987v-213h-987zM455 84v225h213v-225h-213zM455 735v228h213v-228h-213z" />
<glyph unicode="&#xf8;" horiz-adv-x="1026" d="M84 539q0 288 106.5 425.5t323.5 137.5q120 0 205 -43l45 84h154l-91 -166q117 -138 117 -438q0 -288 -106.5 -426t-323.5 -138q-122 0 -209 43l-45 -84h-154l93 168q-115 139 -115 437zM340 500q0 -70 6 -125l264 487q-41 33 -96 33q-93 0 -133.5 -78.5t-40.5 -238.5 v-78zM414 217q41 -35 100 -35q93 0 133.5 79t40.5 239v78q0 51 -8 129z" />
<glyph unicode="&#xf9;" horiz-adv-x="1026" d="M113 322v755h245v-688q0 -101 35.5 -145.5t106.5 -44.5q72 0 120 60t48 151v667h245v-1077h-204l-25 133h-12q-103 -158 -273 -158q-133 0 -209.5 83t-76.5 264zM229 1475l2 6h246l176 -271h-202z" />
<glyph unicode="&#xfa;" horiz-adv-x="1026" d="M113 322v755h245v-688q0 -101 35.5 -145.5t106.5 -44.5q72 0 120 60t48 151v667h245v-1077h-204l-25 133h-12q-103 -158 -273 -158q-133 0 -209.5 83t-76.5 264zM373 1210l176 271h246l2 -6l-222 -265h-202z" />
<glyph unicode="&#xfb;" horiz-adv-x="1026" d="M113 322v755h245v-688q0 -101 35.5 -145.5t106.5 -44.5q72 0 120 60t48 151v667h245v-1077h-204l-25 133h-12q-103 -158 -273 -158q-133 0 -209.5 83t-76.5 264zM238 1204l176 277h200l174 -277h-184l-90 142l-92 -142h-184z" />
<glyph unicode="&#xfc;" horiz-adv-x="1026" d="M113 322v755h245v-688q0 -101 35.5 -145.5t106.5 -44.5q72 0 120 60t48 151v667h245v-1077h-204l-25 133h-12q-103 -158 -273 -158q-133 0 -209.5 83t-76.5 264zM231 1257v224h205v-224h-205zM590 1257v224h205v-224h-205z" />
<glyph unicode="&#xfd;" d="M8 1077h260l162 -506q12 -36 26.5 -106t22.5 -122l8 -52h9q26 186 51 278l133 508h246l-295 -1022q-27 -94 -59.5 -166t-78 -134t-107 -95t-136.5 -33q-44 0 -83.5 4.5t-58 9t-18.5 5.5v188h111q56 0 100.5 40.5t65.5 125.5zM326 1210l176 271h246l2 -6l-222 -265h-202z " />
<glyph unicode="&#xfe;" horiz-adv-x="1026" d="M113 -354v1835h245v-527q39 72 101 110t137 38q165 0 255.5 -140t90.5 -425q0 -281 -91.5 -421.5t-242.5 -140.5q-82 0 -146 36t-93 100h-11v-465h-245zM358 504q0 -151 38.5 -228t125.5 -77t125.5 75t38.5 226v78q0 151 -38.5 226t-125.5 75t-125.5 -75t-38.5 -226v-74z " />
<glyph unicode="&#xff;" d="M8 1077h260l162 -506q12 -36 26.5 -106t22.5 -122l8 -52h9q26 186 51 278l133 508h246l-295 -1022q-27 -94 -59.5 -166t-78 -134t-107 -95t-136.5 -33q-44 0 -83.5 4.5t-58 9t-18.5 5.5v188h111q56 0 100.5 40.5t65.5 125.5zM186 1257v224h205v-224h-205zM545 1257v224 h205v-224h-205z" />
<glyph unicode="&#x152;" horiz-adv-x="1679" d="M61 702q0 364 122.5 546t344.5 182q192 0 308 -152v127h772v-234h-510v-335h422v-234h-422v-369h524v-233h-786v125q-115 -150 -308 -150q-222 0 -344.5 181.5t-122.5 545.5zM332 651q0 -237 61.5 -343.5t188.5 -106.5q128 0 190 106.5t62 343.5v103q0 237 -62 343.5 t-190 106.5q-127 0 -188.5 -106.5t-61.5 -343.5v-103z" />
<glyph unicode="&#x153;" horiz-adv-x="1585" d="M84 539q0 288 106.5 425.5t323.5 137.5q198 0 301 -135q103 135 289 135q196 0 292.5 -137.5t96.5 -425.5v-62h-547q2 -151 40 -226t126 -75q63 0 100 54.5t37 150.5h244q0 -200 -104.5 -303t-276.5 -103q-191 0 -295 134q-107 -134 -303 -134q-217 0 -323.5 138 t-106.5 426zM340 500q0 -160 40.5 -239t133.5 -79t133.5 79t40.5 239v78q0 160 -40.5 238.5t-133.5 78.5t-133.5 -78.5t-40.5 -238.5v-78zM948 655h287q0 246 -131 246q-76 0 -113 -62.5t-43 -183.5z" />
<glyph unicode="&#x178;" horiz-adv-x="1120" d="M0 1405h276l287 -617h8l285 617h264l-428 -875v-530h-262v530zM279 1585v223h204v-223h-204zM637 1585v223h205v-223h-205z" />
<glyph unicode="&#x2c6;" horiz-adv-x="559" d="M0 1204l176 277h201l174 -277h-184l-91 142l-92 -142h-184z" />
<glyph unicode="&#x2dc;" horiz-adv-x="559" d="M-66 1231q0 97 48 168q58 82 153 82q51 0 139 -37q88 -39 134 -39q68 0 79 76h136q0 -61 -19.5 -115.5t-67.5 -94.5t-116 -40q-50 0 -137.5 38t-132.5 38q-69 0 -80 -76h-136z" />
<glyph unicode="&#x2000;" horiz-adv-x="935" />
<glyph unicode="&#x2001;" horiz-adv-x="1870" />
<glyph unicode="&#x2002;" horiz-adv-x="935" />
<glyph unicode="&#x2003;" horiz-adv-x="1870" />
<glyph unicode="&#x2004;" horiz-adv-x="623" />
<glyph unicode="&#x2005;" horiz-adv-x="467" />
<glyph unicode="&#x2006;" horiz-adv-x="311" />
<glyph unicode="&#x2007;" horiz-adv-x="311" />
<glyph unicode="&#x2008;" horiz-adv-x="233" />
<glyph unicode="&#x2009;" horiz-adv-x="374" />
<glyph unicode="&#x200a;" horiz-adv-x="103" />
<glyph unicode="&#x2010;" horiz-adv-x="559" d="M33 432v242h493v-242h-493z" />
<glyph unicode="&#x2011;" horiz-adv-x="559" d="M33 432v242h493v-242h-493z" />
<glyph unicode="&#x2012;" horiz-adv-x="559" d="M33 432v242h493v-242h-493z" />
<glyph unicode="&#x2013;" d="M0 453v200h934v-200h-934z" />
<glyph unicode="&#x2014;" horiz-adv-x="1679" d="M0 453v200h1679v-200h-1679z" />
<glyph unicode="&#x2018;" horiz-adv-x="466" d="M92 805v256l135 344h148l-113 -320h113v-280h-283z" />
<glyph unicode="&#x2019;" horiz-adv-x="466" d="M92 805l113 319h-113v281h283v-256l-135 -344h-148z" />
<glyph unicode="&#x201a;" horiz-adv-x="466" d="M92 0v281h283v-256l-135 -344h-148l113 319h-113z" />
<glyph unicode="&#x201c;" horiz-adv-x="839" d="M90 805v256l135 344h148l-113 -320h113v-280h-283zM465 805v256l135 344h148l-113 -320h113v-280h-283z" />
<glyph unicode="&#x201d;" horiz-adv-x="839" d="M92 805l113 319h-113v281h283v-256l-135 -344h-148zM467 805l113 319h-113v281h283v-256l-136 -344h-147z" />
<glyph unicode="&#x201e;" horiz-adv-x="839" d="M92 0v281h283v-256l-135 -344h-148l113 319h-113zM467 0v281h283v-256l-136 -344h-147l113 319h-113z" />
<glyph unicode="&#x2022;" horiz-adv-x="587" d="M47 705q0 103 72 177t174 74t175 -74t73 -177t-73 -178.5t-175 -75.5t-174 75t-72 179z" />
<glyph unicode="&#x2026;" horiz-adv-x="1679" d="M139 0v281h283v-281h-283zM698 0v281h283v-281h-283zM1257 0v281h283v-281h-283z" />
<glyph unicode="&#x202f;" horiz-adv-x="374" />
<glyph unicode="&#x2039;" horiz-adv-x="559" d="M39 668l278 409h187l-221 -409l221 -410h-187z" />
<glyph unicode="&#x203a;" horiz-adv-x="559" d="M55 258l221 410l-221 409h187l278 -409l-278 -410h-187z" />
<glyph unicode="&#x205f;" horiz-adv-x="467" />
<glyph unicode="&#x20ac;" d="M20 465v166h101q-2 23 -2 71q0 47 2 72h-101v166h123q55 229 210.5 359.5t383.5 130.5q81 0 152 -21v-205q-65 19 -131 19q-131 0 -224 -75t-137 -208h369v-166h-399q-2 -25 -2 -72q0 -48 2 -71h399v-166h-369q43 -134 136 -208.5t225 -74.5q66 0 131 19v-203 q-81 -23 -152 -23q-228 0 -383.5 130.5t-210.5 359.5h-123z" />
<glyph unicode="&#x2122;" horiz-adv-x="1679" d="M158 1268v137h565v-137h-207v-690h-154v690h-204zM788 578v827h228l129 -580h8l129 580h213v-827h-147v600h-9l-135 -600h-137l-133 600h-10v-600h-136z" />
<glyph unicode="&#x25fc;" horiz-adv-x="1075" d="M0 0v1075h1075v-1075h-1075z" />
<glyph unicode="&#xfb01;" horiz-adv-x="1026" d="M18 870v207h109v131q0 57 12.5 106t40 91.5t79 67t122.5 24.5q96 0 178 -24v-183h-100q-41 0 -63.5 -22.5t-22.5 -65.5v-125h186v-207h-186v-870h-246v870h-109zM670 0v1077h245v-1077h-245zM670 1257v224h245v-224h-245z" />
<glyph unicode="&#xfb02;" horiz-adv-x="1026" d="M18 870v207h109v131q0 57 12.5 106t40 91.5t79 67t122.5 24.5q96 0 178 -24v-183h-100q-41 0 -63.5 -22.5t-22.5 -65.5v-125h186v-207h-186v-870h-246v870h-109zM670 0v1481h245v-1481h-245z" />
</font>
</defs>
</svg>
